<svg xmlns="http://www.w3.org/2000/svg">
<defs>
<font
     horiz-adv-x="2048"
     id="font3337"><!-- Courier New is a trademark of The Monotype Corporation. --><!-- Copyright: Copyright 2015 Adobe System Incorporated. All rights reserved. --><font-face
       font-family="CourierNewPSMT"
       units-per-em="2048"
       underline-position="-477"
       underline-thickness="84"
       id="font-face3339" /><missing-glyph
       horiz-adv-x="1229"
       d="M103,0l0,1280l1024,0l0,-1280M135,32l960,0l0,1216l-960,0z"
       id="missing-glyph3341" /><glyph
       unicode="/"
       horiz-adv-x="1229"
       d="M992,1316l-676,-1448C305,-157 290,-169 272,-169C261,-169 251,-165 243,-156C234,-148 230,-139 230,-129C230,-121 233,-110 240,-96l675,1448C922,1367 929,1377 936,1382C943,1387 951,1389 960,1389C971,1389 981,1385 990,1377C998,1368 1002,1359 1002,1349C1002,1342 999,1331 992,1316z"
       id="glyph3343" /><glyph
       unicode="0"
       horiz-adv-x="1229"
       d="M1000,731l0,-208C1000,342 957,199 871,94C804,11 719,-30 616,-30C567,-30 520,-20 477,0C433,19 396,47 365,82C346,104 325,139 302,188C279,237 262,281 252,322C237,379 229,446 229,523l0,208C229,912 272,1056 358,1161C425,1244 510,1285 613,1285C663,1285 710,1275 753,1256C796,1236 833,1208 864,1173C884,1150 905,1115 928,1066C951,1017 967,973 978,933C993,876 1000,808 1000,731M916,720C916,799 905,873 883,942C860,1010 835,1064 807,1105C790,1128 769,1148 742,1165C704,1188 661,1200 614,1200C520,1200 446,1152 393,1056C340,960 313,848 313,720l0,-185C313,456 324,382 347,313C369,244 394,190 423,149C439,126 460,107 487,90C525,66 568,54 616,54C709,54 783,102 836,199C889,295 916,407 916,535z"
       id="glyph3345" /><glyph
       unicode="7"
       horiz-adv-x="1229"
       d="M897,1132l0,38l-602,0l0,-74C295,1076 291,1062 284,1053C276,1044 266,1040 253,1040C241,1040 231,1044 223,1053C215,1062 211,1076 211,1096l0,159l771,0l0,-134l-338,-1080C639,24 632,12 625,7C618,1 609,-2 600,-2C588,-2 578,2 570,10C562,18 558,27 558,38C558,45 560,54 564,66z"
       id="glyph3347" /><glyph
       unicode="9"
       horiz-adv-x="1229"
       d="M959,710C916,633 864,576 805,537C745,498 684,479 621,479C563,479 507,496 453,529C398,562 355,611 323,676C291,740 275,807 275,878C275,981 307,1074 371,1159C434,1243 519,1285 626,1285C702,1285 771,1261 834,1214C897,1167 945,1098 980,1008C1025,893 1047,759 1047,606C1047,487 1028,389 990,310C965,257 928,205 879,155C830,105 774,64 713,33C629,-9 542,-30 451,-30C391,-30 342,-19 304,4C287,15 278,28 278,44C278,55 282,65 290,73C298,80 308,84 319,84C327,84 339,80 354,73C380,60 410,54 444,54C586,54 708,105 810,208C912,310 963,438 963,592C963,620 962,659 959,710M943,850C908,985 864,1078 812,1127C759,1176 698,1200 628,1200C557,1200 494,1170 440,1110C386,1050 359,973 359,879C359,788 386,712 440,653C494,593 555,563 623,563C662,563 701,574 740,595C778,616 814,648 848,691C870,720 902,773 943,850z"
       id="glyph3349" /><glyph
       unicode=":"
       horiz-adv-x="1229"
       d="M597,866l36,0C670,866 702,853 729,826C756,799 769,768 769,731C769,692 756,659 729,633C702,607 670,594 633,594l-36,0C560,594 528,607 501,634C474,661 461,692 461,729C461,768 475,801 502,827C529,853 560,866 597,866M597,241l36,0C670,241 702,228 729,202C756,175 769,143 769,106C769,67 756,35 729,9C702,-17 670,-30 633,-30l-36,0C560,-30 528,-17 501,10C474,36 461,68 461,105C461,144 475,176 502,202C529,228 560,241 597,241z"
       id="glyph3351" /><glyph
       unicode="a"
       horiz-adv-x="1229"
       d="M856,0l0,121C734,18 604,-33 465,-33C364,-33 286,-7 229,44C172,95 144,157 144,231C144,312 181,383 256,444C331,505 440,535 583,535C622,535 664,533 709,528C754,523 803,515 856,504l0,136C856,686 835,726 792,760C749,794 685,811 600,811C535,811 443,792 325,754C304,747 290,744 284,744C273,744 264,748 257,756C249,764 245,774 245,786C245,797 248,806 255,813C264,823 302,837 368,854C472,882 551,896 604,896C710,896 793,870 852,818C911,765 941,706 941,640l0,-556l112,0C1074,84 1088,80 1097,73C1106,65 1110,55 1110,42C1110,30 1106,20 1097,12C1088,4 1074,0 1053,0M856,418C817,429 775,438 731,443C687,448 641,451 592,451C470,451 375,425 306,372C254,333 228,286 228,231C228,180 248,138 288,103C327,68 385,51 461,51C534,51 601,66 664,95C726,124 790,170 856,233z"
       id="glyph3353" /><glyph
       unicode="c"
       horiz-adv-x="1229"
       d="M965,781l0,28C965,830 969,844 977,853C985,862 995,866 1007,866C1020,866 1030,862 1038,853C1046,844 1050,830 1050,809l0,-190C1049,598 1045,584 1038,575C1030,566 1020,562 1007,562C996,562 986,566 979,574C971,581 966,594 965,612C961,659 930,704 872,747C813,790 735,811 636,811C511,811 417,772 352,694C287,616 255,527 255,426C255,317 291,228 362,157C433,86 526,51 639,51C704,51 771,63 839,87C906,111 967,150 1022,203C1036,216 1048,223 1059,223C1070,223 1080,219 1088,212C1095,204 1099,194 1099,183C1099,154 1065,118 998,74C889,3 768,-33 635,-33C500,-33 389,10 302,97C215,183 171,292 171,425C171,560 216,673 305,762C394,851 506,896 641,896C770,896 878,858 965,781z"
       id="glyph3355" /><glyph
       unicode="h"
       horiz-adv-x="1229"
       d="M338,1255l0,-517C391,796 443,837 492,861C541,884 595,896 656,896C721,896 777,885 823,862C868,839 906,803 937,756C968,708 983,658 983,605l0,-521l94,0C1098,84 1112,80 1121,73C1129,65 1133,55 1133,42C1133,30 1129,20 1121,12C1112,4 1098,0 1077,0l-273,0C783,0 769,4 760,12C751,20 747,30 747,42C747,55 751,65 760,73C769,80 783,84 804,84l94,0l0,515C898,660 876,710 833,751C789,792 728,812 650,812C589,812 536,797 493,767C462,746 410,695 338,616l0,-532l95,0C453,84 467,80 476,73C485,65 489,55 489,42C489,30 485,20 476,12C467,4 453,0 433,0l-274,0C139,0 125,4 116,12C107,20 103,30 103,42C103,55 107,65 116,73C125,80 139,84 159,84l95,0l0,1086l-113,0C121,1170 107,1174 98,1182C89,1190 85,1200 85,1213C85,1225 89,1235 98,1243C107,1251 121,1255 141,1255z"
       id="glyph3357" /><glyph
       unicode="j"
       horiz-adv-x="1229"
       d="M735,1297l0,-217l-124,0l0,217M740,781l-499,0C221,781 207,785 198,793C189,801 185,811 185,824C185,836 189,846 198,854C206,862 220,866 241,866l583,0l0,-925C824,-130 809,-190 780,-238C751,-286 707,-325 648,-355C607,-376 559,-386 503,-386l-267,0C216,-386 202,-382 193,-374C184,-367 180,-357 180,-344C180,-331 184,-321 193,-313C202,-305 216,-301 236,-301l265,-1C572,-302 630,-279 674,-232C718,-185 740,-128 740,-59z"
       id="glyph3359" /><glyph
       unicode="l"
       horiz-adv-x="1229"
       d="M657,1255l0,-1171l330,0C1008,84 1022,80 1031,73C1040,65 1044,55 1044,42C1044,30 1040,20 1031,12C1022,4 1008,0 987,0l-744,0C223,0 209,4 200,12C191,20 187,30 187,42C187,55 191,65 200,73C209,80 223,84 243,84l330,0l0,1086l-242,0C311,1170 297,1174 288,1182C279,1190 274,1200 274,1213C274,1225 278,1235 287,1243C296,1251 310,1255 331,1255z"
       id="glyph3361" /><glyph
       unicode="m"
       horiz-adv-x="1229"
       d="M232,866l0,-85C303,858 375,896 447,896C490,896 528,885 561,862C594,839 621,804 643,757C680,804 718,839 757,862C795,885 833,896 872,896C933,896 981,876 1017,837C1064,786 1088,731 1088,671l0,-587l71,0C1179,84 1193,80 1202,73C1211,65 1215,55 1215,42C1215,30 1211,20 1202,12C1193,4 1179,0 1159,0l-155,0l0,663C1004,706 991,741 965,769C939,797 909,811 875,811C844,811 812,800 778,777C744,754 705,708 662,641l0,-557l70,0C752,84 766,80 775,73C784,65 788,55 788,42C788,30 784,20 775,12C766,4 752,0 732,0l-155,0l0,657C577,702 564,739 538,768C511,797 482,811 449,811C419,811 389,801 360,782C319,755 277,708 232,641l0,-557l71,0C323,84 337,80 346,73C355,65 359,55 359,42C359,30 355,20 346,12C337,4 323,0 303,0l-226,0C57,0 43,4 34,12C25,20 21,30 21,42C21,55 25,65 34,73C43,80 57,84 77,84l71,0l0,697l-71,0C57,781 43,785 34,793C25,801 21,811 21,824C21,836 25,846 34,854C43,862 57,866 77,866z"
       id="glyph3363" /><glyph
       unicode="n"
       horiz-adv-x="1229"
       d="M343,866l0,-127C402,798 455,839 502,862C549,885 603,896 662,896C726,896 784,882 837,855C874,835 908,802 939,756C969,709 984,662 984,613l0,-529l71,0C1075,84 1089,80 1098,73C1107,65 1111,55 1111,42C1111,30 1107,20 1098,12C1089,4 1075,0 1055,0l-225,0C809,0 795,4 786,12C777,20 773,30 773,42C773,55 777,65 786,73C795,80 809,84 830,84l70,0l0,515C900,658 878,709 835,750C792,791 734,811 661,811C606,811 558,800 517,778C476,755 418,700 343,611l0,-527l95,0C458,84 472,80 481,73C490,65 494,55 494,42C494,30 490,20 481,12C472,4 458,0 438,0l-274,0C144,0 130,4 121,12C112,20 108,30 108,42C108,55 112,65 121,73C130,80 144,84 164,84l95,0l0,697l-71,0C168,781 154,785 145,793C136,801 132,811 132,824C132,836 136,846 145,854C154,862 168,866 188,866z"
       id="glyph3365" /><glyph
       unicode="o"
       horiz-adv-x="1229"
       d="M1084,431C1084,303 1038,194 947,103C855,12 744,-33 615,-33C484,-33 373,13 282,104C191,195 145,304 145,431C145,559 191,669 282,760C373,851 484,896 615,896C744,896 855,851 947,760C1038,669 1084,560 1084,431M999,431C999,536 962,626 887,700C812,774 721,811 614,811C507,811 417,774 342,700C267,625 229,536 229,431C229,327 267,238 342,163C417,88 507,51 614,51C721,51 812,88 887,163C962,237 999,326 999,431z"
       id="glyph3367" /><glyph
       unicode="p"
       horiz-adv-x="1229"
       d="M298,866l0,-153C348,774 402,819 459,850C516,881 584,896 662,896C745,896 821,877 891,838C961,799 1015,746 1054,677C1092,608 1111,535 1111,459C1111,338 1068,235 982,150C895,64 789,21 663,21C513,21 391,82 298,204l0,-506l204,0C522,-302 536,-306 545,-313C554,-321 558,-331 558,-344C558,-356 554,-366 545,-374C536,-382 522,-386 502,-386l-401,0C81,-386 67,-382 58,-374C49,-367 45,-357 45,-344C45,-331 49,-321 58,-313C67,-306 81,-302 101,-302l113,0l0,1083l-113,0C81,781 67,785 58,793C49,801 45,811 45,824C45,836 49,846 58,854C67,862 81,866 101,866M1026,459C1026,556 991,639 921,708C850,777 764,811 663,811C561,811 475,776 404,707C333,638 298,555 298,459C298,362 333,279 404,210C475,141 561,106 663,106C764,106 849,141 920,210C991,279 1026,362 1026,459z"
       id="glyph3369" /><glyph
       unicode="s"
       horiz-adv-x="1229"
       d="M892,811C892,830 896,844 904,853C912,862 922,866 934,866C947,866 957,862 965,853C973,844 977,830 977,809l0,-144C977,645 973,631 965,622C957,613 947,609 934,609C923,609 913,613 906,620C898,627 893,639 892,656C888,696 867,729 830,755C775,792 703,811 613,811C519,811 446,792 394,754C355,725 335,693 335,658C335,618 358,585 405,558C437,539 498,525 587,515C704,502 785,488 830,472C895,449 943,416 975,375C1006,334 1022,289 1022,241C1022,170 988,106 919,51C850,-5 750,-33 617,-33C484,-33 376,1 291,68C291,45 290,31 287,24C284,17 280,12 273,7C266,2 258,0 249,0C237,0 227,4 219,13C211,22 207,36 207,56l0,173C207,249 211,263 219,272C226,281 236,285 249,285C261,285 271,281 280,273C288,264 292,253 292,239C292,208 300,183 315,162C338,130 376,104 427,83C478,62 540,51 614,51C723,51 805,71 858,112C911,153 938,196 938,241C938,293 911,335 857,366C802,397 723,418 619,429C514,440 439,454 394,471C349,488 313,514 288,549C263,584 250,621 250,661C250,733 285,790 356,833C427,875 511,896 609,896C725,896 819,868 892,811z"
       id="glyph3371" /><glyph
       unicode="t"
       horiz-adv-x="1229"
       d="M442,866l456,0C918,866 932,862 941,854C950,846 954,836 954,823C954,811 950,801 941,793C932,785 918,781 898,781l-456,0l0,-559C442,173 462,133 501,100C540,67 597,51 672,51C729,51 790,60 856,77C922,94 973,113 1010,134C1023,143 1034,147 1043,147C1054,147 1063,143 1071,135C1079,126 1083,116 1083,105C1083,95 1079,86 1070,77C1049,55 997,31 915,6C832,-20 753,-33 678,-33C580,-33 502,-10 444,36C386,82 357,144 357,222l0,559l-155,0C182,781 168,785 159,793C150,801 146,811 146,824C146,836 150,846 159,854C168,862 182,866 202,866l155,0l0,248C357,1134 361,1148 369,1157C377,1166 387,1170 399,1170C412,1170 422,1166 430,1157C438,1148 442,1134 442,1114z"
       id="glyph3373" /></font><font
     horiz-adv-x="2048"
     id="font3375"><!-- Times New Roman is a trademark of The Monotype Corporation. --><!-- Copyright: Copyright 2015 Adobe System Incorporated. All rights reserved. --><font-face
       font-family="MyriadPro-Regular"
       units-per-em="2048"
       underline-position="-223"
       underline-thickness="100"
       id="font-face3377" /><missing-glyph
       horiz-adv-x="1593"
       d="M284,0l0,1280l1024,0l0,-1280M316,32l960,0l0,1216l-960,0z"
       id="missing-glyph3379" /><glyph
       unicode=" "
       horiz-adv-x="512"
       id="glyph3381" /><glyph
       unicode="a"
       horiz-adv-x="909"
       d="M583,132C489,59 430,17 406,6C370,-11 332,-19 291,-19C228,-19 176,3 135,46C94,89 73,146 73,217C73,262 83,300 103,333C130,378 178,421 246,461C313,501 426,550 583,607l0,36C583,734 569,797 540,831C511,865 468,882 413,882C371,882 338,871 313,848C288,825 275,799 275,770l2,-58C277,681 269,658 254,641C238,624 217,616 192,616C167,616 147,625 132,642C116,659 108,683 108,713C108,770 137,823 196,871C255,919 337,943 443,943C524,943 591,929 643,902C682,881 711,849 730,805C742,776 748,718 748,629l0,-311C748,231 750,177 753,158C756,138 762,125 770,118C777,111 786,108 796,108C807,108 816,110 824,115C838,124 865,148 905,188l0,-56C830,32 759,-18 691,-18C658,-18 632,-7 613,16C594,39 584,77 583,132M583,197l0,349C482,506 417,478 388,461C335,432 298,401 275,369C252,337 241,302 241,264C241,216 255,176 284,145C313,113 346,97 383,97C434,97 500,130 583,197z"
       id="glyph3383" /><glyph
       unicode="c"
       horiz-adv-x="909"
       d="M842,348C817,227 769,135 697,70C625,5 545,-28 458,-28C354,-28 263,16 186,103C109,190 70,308 70,457C70,601 113,718 199,808C284,898 387,943 507,943C597,943 671,919 729,872C787,824 816,774 816,723C816,698 808,677 792,662C775,646 752,638 723,638C684,638 654,651 634,676C623,690 615,717 612,756C608,795 594,825 571,846C548,866 515,876 474,876C407,876 354,851 313,802C259,737 232,650 232,543C232,434 259,337 313,254C366,170 439,128 530,128C595,128 654,150 706,195C743,226 778,281 813,362z"
       id="glyph3385" /><glyph
       unicode="d"
       horiz-adv-x="1024"
       d="M711,103C666,56 623,23 580,3C537,-18 491,-28 442,-28C342,-28 255,14 180,98C105,181 68,289 68,420C68,551 109,672 192,781C275,890 381,944 511,944C592,944 658,918 711,867l0,169C711,1141 709,1205 704,1229C699,1253 691,1269 680,1278C669,1287 656,1291 640,1291C623,1291 600,1286 571,1275l-13,35l273,112l45,0l0,-1059C876,256 879,190 884,167C889,143 897,126 908,117C919,108 931,103 946,103C964,103 988,109 1018,120l11,-35l-272,-113l-46,0M711,173l0,472C707,690 695,732 675,769C655,806 629,835 596,854C563,873 530,882 499,882C440,882 388,856 342,803C281,734 251,632 251,499C251,364 280,261 339,190C398,118 463,82 535,82C596,82 654,112 711,173z"
       id="glyph3387" /><glyph
       unicode="e"
       horiz-adv-x="909"
       d="M218,571C217,435 250,328 317,251C384,174 462,135 552,135C612,135 664,152 709,185C753,218 790,274 820,354l31,-20C837,243 796,160 729,85C662,10 577,-28 476,-28C366,-28 272,15 194,101C115,186 76,301 76,446C76,603 116,725 197,813C277,900 378,944 499,944C602,944 686,910 752,843C818,775 851,684 851,571M218,629l424,0C639,688 632,729 621,753C604,790 580,820 547,841C514,862 479,873 443,873C388,873 338,852 295,809C251,766 225,706 218,629z"
       id="glyph3389" /><glyph
       unicode="g"
       horiz-adv-x="1024"
       d="M309,334C253,361 210,400 180,449C150,498 135,552 135,611C135,702 169,780 238,845C306,910 393,943 500,943C587,943 663,922 727,879l194,0C950,879 966,878 971,877C976,875 979,872 981,868C985,862 987,851 987,836C987,819 985,807 982,800C980,797 977,794 972,792C967,790 950,789 921,789l-119,0C839,741 858,680 858,605C858,520 825,447 760,386C695,325 607,295 497,295C452,295 405,302 358,315C329,290 309,268 299,249C288,230 283,213 283,200C283,189 289,178 300,167C311,156 332,149 364,144C383,141 429,139 504,137C641,134 730,129 771,123C833,114 883,91 920,54C957,17 975,-29 975,-84C975,-159 940,-230 869,-296C765,-393 629,-442 462,-442C333,-442 225,-413 136,-355C86,-322 61,-287 61,-251C61,-235 65,-219 72,-203C83,-178 107,-144 142,-100C147,-94 181,-58 244,8C209,29 185,47 171,64C156,80 149,98 149,119C149,142 159,170 178,201C197,232 240,277 309,334M483,895C434,895 392,875 359,836C326,797 309,736 309,655C309,550 332,468 377,410C412,366 456,344 509,344C560,344 601,363 634,401C667,439 683,499 683,580C683,686 660,769 614,829C580,873 536,895 483,895M299,0C268,-34 244,-66 228,-95C212,-124 204,-151 204,-176C204,-208 223,-236 262,-260C329,-301 425,-322 551,-322C671,-322 760,-301 817,-258C874,-216 902,-171 902,-123C902,-88 885,-64 851,-49C816,-34 748,-26 645,-23C495,-19 380,-11 299,0z"
       id="glyph3391" /><glyph
       unicode="h"
       horiz-adv-x="1024"
       d="M333,1422l0,-670C407,833 466,886 509,909C552,932 596,943 639,943C691,943 736,929 773,900C810,871 838,826 856,765C869,722 875,644 875,531l0,-324C875,149 880,109 889,88C896,72 907,59 923,50C939,41 968,36 1011,36l0,-36l-450,0l0,36l21,0C625,36 654,43 671,56C688,69 699,88 706,113C708,124 709,155 709,207l0,324C709,631 704,697 694,728C683,759 667,783 644,799C621,814 594,822 562,822C529,822 495,813 460,796C425,779 382,744 333,691l0,-484C333,144 337,105 344,90C351,75 364,62 383,52C402,41 434,36 481,36l0,-36l-454,0l0,36C68,36 100,42 123,55C136,62 147,74 155,93C163,112 167,150 167,207l0,829C167,1141 165,1205 160,1229C155,1253 147,1269 137,1278C126,1287 112,1291 95,1291C81,1291 58,1286 27,1275l-14,35l274,112z"
       id="glyph3393" /><glyph
       unicode="l"
       horiz-adv-x="569"
       d="M379,1422l0,-1215C379,150 383,112 392,93C400,74 413,60 430,51C447,41 480,36 527,36l0,-36l-449,0l0,36C120,36 149,40 164,49C179,58 191,72 200,92C209,112 213,150 213,207l0,832C213,1142 211,1206 206,1230C201,1253 194,1269 184,1278C173,1287 160,1291 144,1291C127,1291 105,1286 78,1275l-17,35l273,112z"
       id="glyph3395" /><glyph
       unicode="m"
       horiz-adv-x="1593"
       d="M336,748C403,815 442,853 454,863C484,888 516,908 551,922C586,936 620,943 654,943C711,943 761,926 802,893C843,860 871,811 885,748C954,828 1012,881 1059,906C1106,931 1155,943 1205,943C1254,943 1297,931 1335,906C1372,881 1402,840 1424,783C1439,744 1446,684 1446,601l0,-394C1446,150 1450,110 1459,89C1466,74 1478,62 1496,52C1514,41 1543,36 1584,36l0,-36l-452,0l0,36l19,0C1190,36 1221,44 1243,59C1258,70 1269,87 1276,110C1279,121 1280,154 1280,207l0,394C1280,676 1271,728 1253,759C1227,802 1185,823 1128,823C1093,823 1057,814 1022,797C986,779 943,746 892,698l-2,-11l2,-43l0,-437C892,144 896,105 903,90C910,75 923,62 942,52C961,41 994,36 1041,36l0,-36l-463,0l0,36C629,36 664,42 683,54C702,66 715,84 722,108C725,119 727,152 727,207l0,394C727,676 716,729 694,762C665,805 624,826 571,826C535,826 499,816 464,797C409,768 366,735 336,698l0,-491C336,147 340,108 349,90C357,72 369,59 386,50C402,41 435,36 485,36l0,-36l-453,0l0,36C74,36 103,41 120,50C137,59 149,73 158,93C167,112 171,150 171,207l0,350C171,658 168,723 162,752C157,774 150,789 140,798C130,806 116,810 99,810C80,810 58,805 32,795l-15,36l276,112l43,0z"
       id="glyph3397" /><glyph
       unicode="n"
       horiz-adv-x="1024"
       d="M331,749C438,878 541,943 638,943C688,943 731,931 767,906C803,881 832,839 853,782C868,742 875,681 875,598l0,-391C875,149 880,110 889,89C896,72 908,59 925,50C941,41 971,36 1015,36l0,-36l-453,0l0,36l19,0C624,36 654,43 671,56C688,69 699,88 706,113C709,123 710,154 710,207l0,375C710,665 699,726 678,764C656,801 619,820 568,820C489,820 410,777 331,690l0,-483C331,145 335,107 342,92C351,73 364,59 381,50C397,41 430,36 480,36l0,-36l-453,0l0,36l20,0C94,36 125,48 142,72C158,95 166,140 166,207l0,340C166,657 164,724 159,748C154,772 146,788 136,797C125,806 111,810 94,810C75,810 53,805 27,795l-15,36l276,112l43,0z"
       id="glyph3399" /><glyph
       unicode="o"
       horiz-adv-x="1024"
       d="M512,943C651,943 762,890 846,785C917,695 953,592 953,475C953,393 933,310 894,226C855,142 801,79 732,36C663,-7 586,-28 501,-28C363,-28 253,27 172,137C103,230 69,334 69,449C69,533 90,617 132,700C173,783 228,844 296,884C364,923 436,943 512,943M481,878C446,878 410,868 375,847C339,826 310,789 288,736C266,683 255,616 255,533C255,400 282,285 335,188C388,91 457,43 544,43C609,43 662,70 704,123C746,176 767,268 767,398C767,561 732,689 662,782C615,846 554,878 481,878z"
       id="glyph3401" /><glyph
       unicode="p"
       horiz-adv-x="1024"
       d="M-2,825l282,114l38,0l0,-214C365,806 413,862 461,895C508,927 558,943 611,943C703,943 780,907 841,835C916,747 954,632 954,491C954,333 909,202 818,99C743,14 649,-28 536,-28C487,-28 444,-21 408,-7C381,3 351,23 318,53l0,-279C318,-289 322,-328 330,-345C337,-362 351,-376 370,-386C389,-396 423,-401 473,-401l0,-37l-480,0l0,37l25,0C55,-402 86,-395 112,-380C125,-373 135,-361 142,-344C149,-328 152,-287 152,-220l0,866C152,705 149,743 144,759C139,775 130,787 119,795C107,803 91,807 71,807C55,807 35,802 10,793M318,666l0,-342C318,250 321,201 327,178C336,139 359,105 396,76C432,47 478,32 533,32C600,32 654,58 695,110C749,178 776,274 776,397C776,537 745,645 684,720C641,772 591,798 532,798C500,798 468,790 437,774C413,762 373,726 318,666z"
       id="glyph3403" /><glyph
       unicode="r"
       horiz-adv-x="682"
       d="M332,943l0,-206C409,874 487,943 568,943C605,943 635,932 659,910C683,887 695,861 695,832C695,806 686,784 669,766C652,748 631,739 607,739C584,739 558,751 529,774C500,797 478,808 464,808C452,808 439,801 425,788C395,761 364,716 332,653l0,-439C332,163 338,125 351,99C360,81 375,66 397,54C419,42 451,36 492,36l0,-36l-469,0l0,36C70,36 104,43 127,58C144,69 155,86 162,109C165,120 167,153 167,206l0,355C167,668 165,731 161,752C156,772 148,787 137,796C125,805 110,810 93,810C72,810 49,805 23,795l-10,36l277,112z"
       id="glyph3405" /><glyph
       unicode="s"
       horiz-adv-x="797"
       d="M656,943l0,-312l-33,0C598,729 565,796 526,831C486,866 435,884 374,884C327,884 290,872 261,847C232,822 218,795 218,765C218,728 229,696 250,669C271,642 313,613 376,582l146,-71C657,445 725,358 725,250C725,167 694,100 631,49C568,-2 497,-28 419,-28C363,-28 299,-18 227,2C205,9 187,12 173,12C158,12 146,3 137,-14l-33,0l0,327l33,0C156,220 191,149 244,102C297,55 356,31 421,31C467,31 505,45 534,72C563,99 577,131 577,169C577,215 561,254 529,285C496,316 432,356 335,404C238,452 175,495 145,534C115,572 100,620 100,678C100,753 126,816 178,867C229,918 296,943 378,943C414,943 458,935 509,920C543,910 566,905 577,905C588,905 596,907 602,912C608,917 615,927 623,943z"
       id="glyph3407" /><glyph
       unicode="t"
       horiz-adv-x="569"
       d="M330,1217l0,-301l214,0l0,-70l-214,0l0,-594C330,193 339,153 356,132C373,111 394,101 421,101C443,101 464,108 485,122C506,135 522,155 533,182l39,0C549,117 516,68 473,35C430,2 386,-15 341,-15C310,-15 280,-6 251,11C222,28 200,52 186,84C172,115 165,164 165,230l0,616l-145,0l0,33C57,894 94,919 133,954C171,989 205,1030 235,1078C250,1103 272,1150 299,1217z"
       id="glyph3409" /><glyph
       unicode="y"
       horiz-adv-x="1024"
       d="M12,916l427,0l0,-37l-21,0C388,879 366,873 351,860C336,847 328,830 328,811C328,785 339,749 361,703l223,-462l205,506C800,774 806,801 806,828C806,840 804,849 799,855C794,862 785,868 774,873C763,877 743,879 714,879l0,37l298,0l0,-37C987,876 968,871 955,863C942,855 927,840 911,818C905,809 894,783 877,741l-373,-914C468,-262 421,-329 363,-374C304,-419 248,-442 194,-442C155,-442 122,-431 97,-408C72,-385 59,-359 59,-330C59,-302 68,-279 87,-262C105,-245 130,-237 162,-237C184,-237 214,-244 252,-259C279,-269 295,-274 302,-274C322,-274 344,-264 368,-243C391,-222 415,-182 439,-123l65,159l-329,691C165,748 149,773 127,804C110,827 97,843 86,851C71,862 46,871 12,879z"
       id="glyph3411" /></font>
</defs>
</svg>
